*Artist: Silenced Minstrel
*Album: An Ode To A Sickening Year [compilation]
*Year: 2020
*Genre: Black/Gothic Metal
*Country: Malaysia
*Format: mp3@CBR320kbps
*Size: 118MB

Tracklist:
01. Chaos, Revisited 4:28
02. I Shall Miss Quintessa 5:42
03. Valedictory Sigh 4:44
04. Misery, Revisited 7:01
05. Another Black Year 6:39
06. In Memoriam: Undertaker's Lament 4:40
07. Black Hearted Mystic 5:06
08. (Blood Red Flowers) Bleeding Moon 5:07
09. Canto Diablo 1: Demonic Epiphany 3:56
10. In Memoriam: October Skies 3:59
******************************
Total playing time: 51:22



Technical info

Input File: 01. Chaos, Revisited (Remixed 2020).mp3
Channels : 2
Sample Rate : 44100
Precision : 16-bit
Duration : 00:00:00.27 = 11819 samples = 20.1003 CDDA sectors
File Size : 10.8M
Bit Rate : 323M
Sample Encoding: MPEG audio (layer I, II or III)
Comments :
Title=Chaos, Revisited
Artist=Silenced Minstrel
Album=An Ode to a Sickening Year (Compilation)
Tracknumber=1
Year=2020-12-01
Genre=Alternative & Indie Rock & Metal
Discnumber=1



[ Hidden Text ]