Help - Search - Members - Calendar
Full Version: Exocatharsis - A Triumphant Stillbirth [ep] (2021)
Metal Area - Extreme Music Portal > Releases Area / Релизы > Archive
necroscum


*Artist: Exocatharsis
*Album: A Triumphant Stillbirth [ep]
*Year: 2021
*Genre: Death Metal
*Country: United States
*Format: mp3@CBR320kbps
*Size: 24MB

Tracklist:
01. Emancipation from Bloodpact 03:13
02. Ossuary Incineration 03:20
03. Gerasomniac 04:47
******************************
Total playing time: 11:20



Technical info

Input File: 02. Ossuary Incineration.mp3
Channels : 2
Sample Rate : 44100
Precision : 16-bit
Duration : 00:03:21.00 = 8863968 samples = 15074.8 CDDA sectors
File Size : 8.13M
Bit Rate : 323k
Sample Encoding: MPEG audio (layer I, II or III)
Comments :
Title=Ossuary Incineration
Artist=Exocatharsis
Album=A Triumphant Stillbirth
Tracknumber=2
Year=2021



[ Hidden Text ]
METALHUNTER
Дэтовый Running Wild 1488.gif
This is a "lo-fi" version of our main content. To view the full version with more information, formatting and images, please click here.
Invision Power Board © 2001-2022 Invision Power Services, Inc.