Help - Search - Members - Calendar
Full Version: Morgul Blade - Fell Sorcery Abounds (2021)
Metal Area - Extreme Music Portal > Releases Area / Релизы > New Releases
Samaritianin


*Artist: Morgul Blade
*Album: Fell Sorcery Abounds
*Year: 2021
*Genre: Heavy Metal
*Country: United States
*Format: mp3@CBR320kbps
*Size: 88MB

Tracklist:
1. He Who Sits Upon the Black Throne of Angmar / The Morgul Blade 04:31
2. A Last Waltz of Gevaudan 04:24
3. In the Grip of the Dark Lord 05:38
4. Sons of the Night 02:37
5. Oak in the Mist 02:36
6. The Five Will Ride at Dawn 05:17
7. The Beacons Must Be Lit! 04:39
8. Blood Has Been Spilled This Night 02:23
9. Fell Sorcery Abounds 06:10
******************************
Total playing time: 38:15




Extended info
Will Spectre Drums, Synth
See also: Heavy Temple
Jep Guitars, Synth
Dan JD Vocals, Bass
Klauf Vocals, Guitars, Synth
Spectre Drums (2020-present)


Technical info

Input File: 06. The Five Will Ride at Dawn.mp3
Channels : 2
Sample Rate : 44100
Precision : 16-bit
Duration : 00:05:17.10 = 13983890 samples = 23782.1 CDDA sectors
File Size : 12.8M
Bit Rate : 323k
Sample Encoding: MPEG audio (layer I, II or III)
Comments :
Title=The Five Will Ride at Dawn
Artist=Morgul Blade
Album=Fell Sorcery Abounds
Tracknumber=6
Year=2021-11-25
Discnumber=1



[ Hidden Text ]
isvili
Heavy/Black Metal
Storky
great album, all about being dark and epic.
This is a "lo-fi" version of our main content. To view the full version with more information, formatting and images, please click here.
Invision Power Board © 2001-2022 Invision Power Services, Inc.