Help - Search - Members - Calendar
Full Version: Fane - Solitude (2021)
Metal Area - Extreme Music Portal > Releases Area / Релизы > New Releases
Samaritianin


*Artist: Fane
*Album: Solitude
*Year: 2021
*Genre: Doom Metal/Sludge
*Country: United States
*Format: mp3@CBR320kbps
*Size: 117MB

Tracklist:
1. Gnawed 06:14
2. The Hunt 08:36
3. Chorus of severed heads 06:07
4. Crystal seer 07:02
5. Hooves 02:35
6. Void embrace 08:33
7. Violent divide 11:59
******************************
Total playing time: 51:06




Technical info

Input File: 07 - Violent Divide.mp3
Channels : 2
Sample Rate : 44100
Precision : 16-bit
Duration : 00:11:59.87 = 31746267 samples = 53990.2 CDDA sectors
File Size : 28.9M
Bit Rate : 321k
Sample Encoding: MPEG audio (layer I, II or III)
Comments :
Title=Violent Divide
Artist=Fane
Album=Solitude
Tracknumber=7/7
Year=2021



[ Hidden Text ]
vosmidesijatye
На фоне множества четверостортов и банальностей в стилевой нише достаточно живенько и не шаблонно лабают, судя по паре треков, что послушал на бэндкампе. Качаю альбус.

Флак не подгонишь для вящего удовольствия? smile1.gif
This is a "lo-fi" version of our main content. To view the full version with more information, formatting and images, please click here.
Invision Power Board © 2001-2022 Invision Power Services, Inc.