Help - Search - Members - Calendar
Full Version: Rhapsody Of Fire - Glory For Salvation (2021)
Metal Area - Extreme Music Portal > Releases Area / Релизы > Archive
necroscum


*Artist: Rhapsody Of Fire
*Album: Glory For Salvation
*Year: 2021
*Genre: Symphonic Power Metal
*Country: Italy
*Format: mp3@CBR320kbps
*Size: 159MB

Tracklist:
01. Son of Vengeance 05:46
02. The Kingdom of Ice 04:25
03. Glory for Salvation 05:04
04. Eternal Snow 01:33
05. Terial the Hawk 04:49
06. Maid of the Secret Sand 05:07
07. Abyss of Pain II 10:44
08. Infinitae Gloriae 04:31
09. Magic Signs 04:52
10. I'll Be Your Hero 05:29
11. Chains of Destiny 03:55
12. Un'ode per l'eroe 04:51
13. La esencia de un rey 04:51
******************************
Total playing time: 1:05:57



Preview 3


Technical info

Input File: 02 - The Kingdom of Ice.mp3
Channels : 2
Sample Rate : 44100
Precision : 16-bit
Duration : 00:04:25.00 = 11686500 samples = 19875 CDDA sectors
File Size : 10.8M
Bit Rate : 327k
Sample Encoding: MPEG audio (layer I, II or III)
Comments :
Title=The Kingdom of Ice
Artist=Rhapsody of Fire
Album=Glory for Salvation
Tracknumber=2
Year=2021-11-26
Discnumber=1



[ Hidden Text ]
Cronopio
Thank you.

(It says there's a virus.)
sadmannn
Ну, пару-тройку треков, пожалуй, можно записать в зачетный лист, не больше
И как же не хватает им Фабио..ну, и остальных
3062
ох, а этого говна и даром не надо, драконы, магия, рыцари, тьфу срамота
видел клип - хорошо прочистил желудок.
hammer
А мечи у них по прежнему из папье маше?)
Yarri
Картонные.
Maestrovs
Кому в эпоху метавселенных и VR нужны мечи из пенопласта и прочих поролонов? Они давно не дети. Только световые, только хардкор.
BleedingSun
Так по составу - это уже совсем другая группа. Ещё и без Фабио... Не, спасибо - не стану и время тратить.
Сварог Барг
Отличный крепкий альбом, вокалист спел на достойном группы уровне и сонграйтинг не подкачал. Magic Signs - прекрасная баллада.
CTPEMLEHIE
Ну как же так... прошлый был довольно интересным альбомом, а здесь просто калл. Я не дослушал(
vosmidesijatye
Эх, а ведь когда то вокруг группы кипели страсти, а фанаты пауэра писались кипятком с каждого альбома...

folker
ЦИТАТА(vosmidesijatye @ Dec 2 2021, 16:19:42) *
Эх, а ведь когда то вокруг группы кипели страсти, а фанаты пауэра писались кипятком с каждого альбома...


И где же все эти фанаты?
Aresson
все пообварились насмерть в собственном кипятке
DenisKov
Третьесорт, фоном кое как осилил пол альбома.
This is a "lo-fi" version of our main content. To view the full version with more information, formatting and images, please click here.
Invision Power Board © 2001-2022 Invision Power Services, Inc.