Help - Search - Members - Calendar
Full Version: Opera Diabolicus - Death On A Pale Horse (2021)
Metal Area - Extreme Music Portal > Releases Area / Релизы > New Releases
Samaritianin


*Artist: Opera Diabolicus
*Album: Death On A Pale Horse
*Year: 2021
*Genre: Epic Heavy/Gothic/Doom/Progressive Metal
*Country: Sweden
*Format: mp3@CBR320kbps
*Size: 136MB

Tracklist:
1. Listen Everybody 02:49
2. Bring Out Your Dead 05:24
3. Second Coming 09:50
4. Siren's Call 07:53
5. Darkest Doom on the Brightest of Days 07:34
6. A Song of Detestation 06:46
7. Little Sister 03:05
8. Night Demon 08:04
9. At Nighttime 07:43
******************************
Total playing time: 59:08



Extended info
Adrian de Crow Bass
David Grimoire Guitars (rhythm), Guitars (lead), Keyboards, Vocals (backing)


Technical info

Input File: 08 - Night Demon.mp3
Channels : 2
Sample Rate : 44100
Precision : 16-bit
Duration : 00:08:04.52 = 21367288 samples = 36338.9 CDDA sectors
File Size : 19.5M
Bit Rate : 322k
Sample Encoding: MPEG audio (layer I, II or III)
Comments :
Title=Night Demon
Artist=Opera Diabolicus
Album=Death on a Pale Horse
Tracknumber=8/9
Year=2021



[ Hidden Text ]
BladeOvDarkness
Bettina Jucksch Violin (Track 7)
Hangsvart Throat singing (Track 5)
Mats Levén Vocals (lead)
Snowy Shaw Drums, Vocals, Vocals (lead) (Track 6)
Angelina DelCarmen Vocals (Tracks 4, 6, 7, 8, 9)
Madeleine Liljestam Vocals (Tracks 3, 5)
Andy LaRocque Guitars (lead) (Track 3)
Michael Denner Guitars (lead) (Track 3)
Ronaldo Rodrigues Hammond Organ, Moog, Piano (Tracks 2, 4, 6, 7)
Elias Holmlid Keyboards (Track 3)
Nathaniel Wolkstein Violin (Track 2)
Alexey Kochetkov Violin (Track 5)
This is a "lo-fi" version of our main content. To view the full version with more information, formatting and images, please click here.
Invision Power Board © 2001-2022 Invision Power Services, Inc.