Help - Search - Members - Calendar
Full Version: Mental Devastation - The Delusional Mystery Of The Self Part I (2021)
Metal Area - Extreme Music Portal > Releases Area / Релизы > Archive
Samaritianin


*Artist: Mental Devastation
*Album: The Delusional Mystery Of The Self Part I
*Year: 2021
*Genre: Thrash Metal
*Country: Chile
*Format: mp3@CBR320kbps
*Size: 97MB

Tracklist:
1. Genesis
2. Ascension
3. Conquerors
4. Labyrinth
5. The Abyss
6. Vulcanic Eruption
7. Perpetual Dualities
8. Time's Echoes
9. Dans l'absurde
10. Reflections over the Veils of Death
******************************
Total playing time: 42:13




Extended info
Felipe Espinoza Guitars
Matías Morales Guitars
Alejandro Lagos Vocals, Bass
Nicolas Pastene Drums


Technical info

Input File: 05 - The Abyss.mp3
Channels : 2
Sample Rate : 44100
Precision : 16-bit
Duration : 00:05:26.39 = 14393843 samples = 24479.3 CDDA sectors
File Size : 13.1M
Bit Rate : 322k
Sample Encoding: MPEG audio (layer I, II or III)
Comments :
Title=The Abyss
Artist=Mental Devastation
Album=The Delusional Mystery of the Self (Part 1)
Tracknumber=5/10
Year=2021



[ Hidden Text ]
sta1081
СУПЕР!!!!!
Andrew
View of all 10 Tracks

troll_swamp
Давненько слушал их первенец.
Не помню его совсем, но от этого я в восторге.
Отличный замес. Forbidden и Violence посвящается. Плюс его величество басс, просто украшение альбома.
Ням - ням просто для ушей, мурлыкает, извивается и завораживает. Шикарно.
Слушайте и получайте удовольствие, магия.
Альбом очень годный, шо тут думать, Чилийцы умницы.
pray.gif pray.gif pray.gif
Victim of fate
с 13 года ничего не изменилось( второй эшелон)
по клипу подумал продолжение клипа Sia-Chandelier ))))))
This is a "lo-fi" version of our main content. To view the full version with more information, formatting and images, please click here.
Invision Power Board © 2001-2022 Invision Power Services, Inc.