Help - Search - Members - Calendar
Full Version: Kryptonomicon - Nekromantikos (2021)
Metal Area - Extreme Music Portal > Releases Area / Релизы > New Releases
Samaritianin


*Artist: Kryptonomicon
*Album: Nekromantikos
*Year: 2021
*Genre: Black/Death Metal
*Country: Italy
*Format: mp3@CBR320kbps
*Size: 112MB

Tracklist:
1. Nekromantikos
2. Nocturnal Kill
3. Baron Blood
4. Zeder
5. Blind Resurrected
6. The Omen
7. Timor Mortis Morte Pejor
8. Thousand Cats
9. The Ritual
10. Churchman
11. The Passion Of Lovers (Bauhaus cover)
******************************
Total playing time: 48:52




Extended info
Frank Ponga Bass, Vocals (backing)
Diego Rossi Drums
Stefano Rumich Guitars
Luca Sterle Vocals


Technical info

Input File: 07 - Timor Mortis Morte Pejor.mp3
Channels : 2
Sample Rate : 44100
Precision : 16-bit
Duration : 00:05:51.08 = 15482584 samples = 26330.9 CDDA sectors
File Size : 14.1M
Bit Rate : 322k
Sample Encoding: MPEG audio (layer I, II or III)
Comments :
Title=Timor Mortis Morte Pejor
Artist=Kryptonomicon
Album=Nekromantikos
Tracknumber=7/11
Year=2021



[ Hidden Text ]
isvili

This is a "lo-fi" version of our main content. To view the full version with more information, formatting and images, please click here.
Invision Power Board © 2001-2022 Invision Power Services, Inc.