Help - Search - Members - Calendar
Full Version: Voices - Breaking The Trauma Bond (2021)
Metal Area - Extreme Music Portal > Releases Area / Релизы > Archive
Samaritianin


*Artist: Voices
*Album: Breaking The Trauma Bond
*Year: 2021
*Genre: Progressive Black/Death Metal
*Country: United Kingdom
*Format: mp3@CBR320kbps
*Size: 158MB

Tracklist:
1. A Field Without Crows
2. Breaking the Trauma Bond
3. An Audience of Mannequins
4. Lilacs In-Between
5. Ghost City
6. Petrograph
7. Methods of Madness
8. Running Away
9. Absent Equilibrium
10. Beckoning Shadows
11. My Sick Mind
12. Whispers
13. The Widower
14. Kaleidoscope of Thorns
15. She Speaks to Him in a Dream
16. Photographs of a Storm Passing Overhead
******************************
Total playing time: 1:08:15



Extended info
Dan Abela Bass (2012-present)
See also: Sarah Jezebel Deva, ex-Dark Veil
David Gray Drums (2012-present)
See also: Akercocke, The Antichrist Imperium, ex-Church of Satan, ex-Salem Orchid, Photographing Girls, ex-The Berzerker, ex-My Dying Bride (live)
Sam Loynes Guitars (2012-present)
See also: Akercocke, Shrines, The Antichrist Imperium, Diminished Fifth, ex-Talanas (live)
Peter Benjamin Guitars, Vocals (2012-present)
See also: This Is Endless, ex-Concept (live), ex-Akercocke, ex-Corpsing, ex-Pantheist, ex-The Order of Apollyon


Technical info

Input File: 07 - Methods of Madness.mp3
Channels : 2
Sample Rate : 44100
Precision : 16-bit
Duration : 00:04:51.70 = 12863926 samples = 21877.4 CDDA sectors
File Size : 11.8M
Bit Rate : 323k
Sample Encoding: MPEG audio (layer I, II or III)
Comments :
Title=Methods of Madness
Artist=Voices
Album=Breaking the Trauma Bond
Tracknumber=7/16
Year=2021



[ Hidden Text ]
Old Vyaine
vosmidesijatye
Интересно будет почитать мнение FullOfHate.
biroutios
QUOTE(vosmidesijatye @ Nov 26 2021, 21:50:43) *
Интересно будет почитать мнение FullOfHate.

15.gif
Metalass
Отличный альбом! После сингла ожидания были довольно высоки, но не подвели. Не скажу, что все по вкусу, в конце концов альбомы с такой продолжительностью редко бывают идеальными, некоторые трэки я бы повыкидывал и в целом когда они фигачат бластбиты меня просто уносят и хочется еще и еще. Ну и некоторые мелодии не совсем в кассу.

Сбалансированный альбом, не надоедает. Есть и быстрые куски и спокойные песни.

Хорошо, что добавили заслушанную до дыр Petrograph, песня просто бомбическая, да жаль оригинал был имхо лучше, там такой адский бас.

На носителе хотел заказать, но с доставкой винилка выливается в 50 фунтов, не уверен, что готов к таким тратам, но прошлые работы может закажу. Группа очень хорошая, от альбома к альбому никогда не знаешь наперед, чем удивят.
Chasm
Соглашусь, альбом реально классный.
satanist666
VOICES:
This is a "lo-fi" version of our main content. To view the full version with more information, formatting and images, please click here.
Invision Power Board © 2001-2022 Invision Power Services, Inc.