Help - Search - Members - Calendar
Full Version: Eternal Evil - The Warriors Awakening Brings The Unholy Slaughter (2021)
Metal Area - Extreme Music Portal > Releases Area / Релизы > New Releases
Samaritianin


*Artist: Eternal Evil
*Album: The Warriors Awakening Brings The Unholy Slaughter
*Year: 2021
*Genre: Old School Black/Thrash Metal
*Country: Sweden
*Format: mp3@CBR320kbps
*Size: 98MB

Tracklist:
1. Succubus 03:37
2. Bestial Fornication 02:20
3. Terror of the Sphinx 05:11
4. The Captors Command 02:48
5. Minotaur of Evil 05:44
6. The Nocturnal Omen 05:01
7. Satanic Forces 03:55
8. Rise of Death 02:58
9. Eternal Evil 05:20
10. Witch's Spell 03:22
11. Stab on the Blade 02:16
******************************
Total playing time: 42:32





Extended info
Jacob "Ginger" Livåg Bass (2019-present)
Alphonse Bouquelon Drums (2019-present)
Adrian Vocals, Guitars (2019-present)
See also: The Burning of Sodom, ex-Three Dead Fingers
Tobias Ozzy Lindström Guitars (2020-present)
See also: ex-Slaughtersword


Technical info

Input File: 09 - Eternal Evil.mp3
Channels : 2
Sample Rate : 44100
Precision : 16-bit
Duration : 00:05:20.44 = 14131184 samples = 24032.6 CDDA sectors
File Size : 12.9M
Bit Rate : 323k
Sample Encoding: MPEG audio (layer I, II or III)
Comments :
Title=Eternal Evil
Artist=Eternal Evil
Album=The Warriors Awakening... Brings The Unholy Slaughter!
Tracknumber=9/11
Year=2021



[ Hidden Text ]
isvili
Очень поперло, отличный олдскул.
This is a "lo-fi" version of our main content. To view the full version with more information, formatting and images, please click here.
Invision Power Board © 2001-2022 Invision Power Services, Inc.