Help - Search - Members - Calendar
Full Version: Concrete Winds - Nerve Butcherer (2021)
Metal Area - Extreme Music Portal > Releases Area / Релизы > New Releases
necroscum


*Artist: Concrete Winds
*Album: Nerve Butcherer
*Year: 2021
*Genre: Death Metal/Grindcore
*Country: Finland
*Format: mp3@CBR320kbps
*Size: 66MB

Tracklist:
1. Nerve Butcherer 02:25
2. Chromium Jaws 03:07
3. Demonic Truculence 01:57
4. Industrial Mutilation 02:46
5. Noise Trepanation 02:18
6. Intravenous Doctrine 01:59
7. Flaying Internecine 02:54
8. Paroxystic Flagellator 02:01
9. Dissolvent Baptism 04:48
10. Astomatous Vomiting 02:44
******************************
Total playing time: 26:59





Technical info

Input File: 02. Chromium Jaws.mp3
Channels : 2
Sample Rate : 44100
Precision : 16-bit
Duration : 00:03:06.89 = 8241981 samples = 14017 CDDA sectors
File Size : 7.78M
Bit Rate : 333k
Sample Encoding: MPEG audio (layer I, II or III)
Comments :
Title=Chromium Jaws
Artist=Concrete Winds
Album=Nerve Butcherer
Tracknumber=2
Year=2021
Discnumber=1/1



[ Hidden Text ]
babanguida
It's Death or Black Death but not really Grindcore even if you can find some elements in.
Antichrist
Excellent! Very brutal and chaotic release.
sacrut
they are just unstoppable, an unbelievable wave of energy and riffing attack
AHBAnep
[ Hidden Text ]
Hexer
Помимо финского Блэка, мне всегда нравились банды из суоми которые играли Дэз Метал, Грайнд и прочее. Concrete Winds это только подтвердил. Брутально, хаотично и очень зажигательно. Наиприятнейший альбом!
Storky
Reminds Mulk - Putrilogie (2009)
about melodies, but more of standart DM and chaotic, which is boring a bit.
However its not oneman and sounds quite natural, 9-/10
This is a "lo-fi" version of our main content. To view the full version with more information, formatting and images, please click here.
Invision Power Board © 2001-2022 Invision Power Services, Inc.