Help - Search - Members - Calendar
Full Version: Hollow - Tower (2021)
Metal Area - Extreme Music Portal > Releases Area / Релизы > New Releases
necroscum


*Artist: Hollow
*Album: Tower
*Year: 2021
*Genre: Progressive/Power Metal
*Country: Sweden
*Format: mp3@CBR320kbps
*Size: 85MB

Tracklist:
01. Birth 03:45
02. The Tower 03:25
03. Guardian 03:49
04. The Waiting Is Over 03:26
05. Destroyer of Worlds 03:38
06. Every Drop of My Blood 03:58
07. Sunrise 03:29
08. A Home Forgotten 03:30
09. Nation of Man 03:42
10. Wander On 03:39
******************************
Total playing time: 36:21



Preview 3


Technical info

Input File: 02 - The Tower.mp3
Channels : 2
Sample Rate : 44100
Precision : 16-bit
Duration : 00:03:26.00 = 9084600 samples = 15450 CDDA sectors
File Size : 8.39M
Bit Rate : 326k
Sample Encoding: MPEG audio (layer I, II or III)
Comments :
Title=The Tower
Artist=Hollow
Album=Tower
Tracknumber=2
Year=2021-11-26
Discnumber=1



[ Hidden Text ]
Marek
Lossless please?
avather
Обложка отличное
Что внутри?
MetalgeR
Чёёёт уныло или я зажрался
Dreamtale
Уныло и ты зажрался.
This is a "lo-fi" version of our main content. To view the full version with more information, formatting and images, please click here.
Invision Power Board © 2001-2022 Invision Power Services, Inc.