Help - Search - Members - Calendar
Full Version: Fortress - Don't Spare The Wicked (2021)
Metal Area - Extreme Music Portal > Releases Area / Релизы > Archive
necroscum


*Artist: Fortress
*Album: Don't Spare The Wicked
*Year: 2021
*Genre: Heavy/Power Metal
*Country: United States
*Format: mp3@CBR320kbps
*Size: 67MB

Tracklist:
01. Lost Forever 04:06
02. Devil's Wheel 03:35
03. Anguish 03:37
04. Red Light Runner 02:55
05. Find Yourself 03:37
06. Children of the Night 04:08
07. The Passage 03:31
08. Don't Spare the Wicked 03:16
******************************
Total playing time: 28:45





Technical info

Input File: 02 - Devil\'s Wheel.mp3
Channels : 2
Sample Rate : 44100
Precision : 16-bit
Duration : 00:03:35.00 = 9481500 samples = 16125 CDDA sectors
File Size : 8.77M
Bit Rate : 326k
Sample Encoding: MPEG audio (layer I, II or III)
Comments :
Title=Devil's Wheel
Artist=Fortress
Album=Don't Spare the Wicked
Tracknumber=2
Year=2021-11-26
Discnumber=1



[ Hidden Text ]
metalboll
Отличный музон! Зачет ! Старая школа!
metalboll
Super!
Storky
Очень понравился когда-то такой шэдевральный хэви на харде Ambush - Desecrator (2015)
С тех пор ничего подобного не слышал, и только в последнее время начали попадаться похожие не плохие релизы.
Так вот только этот релиз я бы поставил на уровень с Ambush, очень хорошоий альбом, думаю десятка.
added: 9/10
grobator
обновите ссылку
Storky
[ Hidden Text ]
Victim of fate
ЦИТАТА(Storky @ Dec 10 2021, 12:28:39) *
Очень понравился когда-то такой шэдевральный хэви на харде Ambush - Desecrator (2015)
С тех пор ничего подобного не слышал, и только в последнее время начали попадаться похожие не плохие релизы.
Так вот только этот релиз я бы поставил на уровень с Ambush, очень хорошоий альбом, думаю десятка.
added: 9/10

Ambush - как раз 10/10
Fortress - 8/10

и обе команды достойны коллекции!!!!

Yarri
ЦИТАТА(Storky @ Dec 10 2021, 12:28:39) *
Очень понравился когда-то такой шэдевральный хэви на харде Ambush - Desecrator (2015)

Это был отличный подгон. Мне вообще вся дискография понравилась. А "Крепость" не так чтобы очень.
SAPOGi
Не Крепость, а шалашик какой-то. Вокалист прям с первой же песни не пришелся.
Вобщем крепость этого вльбома максимум как у жигулька 4-5 градусовв
valegga
прям вернули в молодость, красавцы! очень душевная работа с характерными приёмчиками из 80х и весьма голосистым вокалёром! не покатила только вторая вещь - какая-то обыденная она, остальное - бальзам на мои седые уши. 9 из 10 этому столику pray.gif
This is a "lo-fi" version of our main content. To view the full version with more information, formatting and images, please click here.
Invision Power Board © 2001-2022 Invision Power Services, Inc.