*Artist: Hunters Moon
*Album: The Great Pandemonium
*Year: 2021
*Genre: Black/Thrash Metal
*Country: Australia
*Format: mp3@CBR320kbps
*Size: 90MB

Tracklist:
1. Torn by Talons 04:45
2. Storm of Hail and Fire 04:49
3. Pilgrims Exile 05:00
4. Rebellion 03:44
5. Bridge over Chaos 05:20
6. Drag Them to the Coffins 04:22
7. Red Death 05:14
8. Hearse for a Barren Earth 06:18
******************************
Total playing time: 39:32



Extended info
J. Eradicator All instruments
See also: ex-Denouncement Pyre, ex-Nocturnal Graves
Lust Vocals, Lyrics
See also: Denouncement Pyre, Nocturnal Graves, Oxygen Abortion


Technical info

Input File: 07 - Red Death.mp3
Channels : 2
Sample Rate : 44100
Precision : 16-bit
Duration : 00:05:13.70 = 13833950 samples = 23527.1 CDDA sectors
File Size : 12.7M
Bit Rate : 323k
Sample Encoding: MPEG audio (layer I, II or III)
Comments :
Title=Red Death
Artist=HUNTERS MOON
Album=The Great Pandemonium
Tracknumber=7/8
Year=2021



[ Hidden Text ]