Help - Search - Members - Calendar
Full Version: Morguiliath - Occult Sins, New Unholy Dimension (2021)
Metal Area - Extreme Music Portal > Releases Area / Релизы > New Releases
necroscum


*Artist: Morguiliath
*Album: Occult Sins, New Unholy Dimension
*Year: 2021
*Genre: Black Metal
*Country: France
*Format: mp3@CBR320kbps
*Size: 109MB

Tracklist:
1. Occult Sins, New Unholy Dimension 02:19
2. Pass Away 04:59
3. Blåck Peårl 05:58
4. Ad Mortem Festinamus 04:40
5. Aborted Inquisition 06:39
6. Venom and Vomit 07:27
7. Glörïa 07:44
8. Ghouls Sphere 07:54
******************************
Total playing time: 47:40





Technical info

Input File: 02-morguiliath-pass_away-e48f567e.mp3
Channels : 2
Sample Rate : 44100
Precision : 16-bit
Duration : 00:04:59.75 = 13218887 samples = 22481.1 CDDA sectors
File Size : 12.1M
Bit Rate : 324k
Sample Encoding: MPEG audio (layer I, II or III)
Comments :
Title=Pass Away
Artist=Morguiliath
Album=Occult Sins, New Unholy Dimension
Tracknumber=2/8
Year=2021
Genre=Black Metal



[ Hidden Text ]
Sangreal
Ну и ccaнина.
"illustrious boss of French Black Metal" всё пытается выехать на былых заслугах.
Заставляют его продолжать этим заниматься, что ли?
Освободите Вилли!
This is a "lo-fi" version of our main content. To view the full version with more information, formatting and images, please click here.
Invision Power Board © 2001-2022 Invision Power Services, Inc.