Help - Search - Members - Calendar
Full Version: Lychlake - The Tragedy Of Doctor Faustus (2021)
Metal Area - Extreme Music Portal > Releases Area / Релизы > Archive
necroscum


*Artist: Lychlake
*Album: The Tragedy Of Doctor Faustus
*Year: 2021
*Genre: Symphonic Death Metal
*Country: United Kingdom
*Format: mp3@CBR320kbps
*Size: 160MB

Tracklist:
1. Bene Disserere Est Finis Logices 11:58
2. Consummatum Est 09:09
3. Felicity Bequeathed By The Neck Of Paramour 09:55
4. Libera Me I 03:34
5. Libera Me II 06:23
6. Penultimate Patricide 06:15
7. The Tragedy of Doctor Faustus 23:02
******************************
Total playing time: 1:10:16




Technical info

Input File: 02 - Consummatum Est.mp3
Channels : 2
Sample Rate : 44100
Precision : 16-bit
Duration : 00:09:09.33 = 24225585 samples = 41200 CDDA sectors
File Size : 22.0M
Bit Rate : 321k
Sample Encoding: MPEG audio (layer I, II or III)
Comments :
Title=Consummatum Est
Artist=Lychlake
Album=The Tragedy of Doctor Faustus
Tracknumber=2/7
Year=2021



[ Hidden Text ]
Sanctus
Весьма и весьма грамотная работа! Музыка увлекает, погружает и уносит - моё почтение! 20.gif
isvili
Вроде и интересно, но звук подгулял, им бы хорошую студию.
AnthonyHipHopkins
Даа даже хороший звук бы здесь общему горю не помог.
Рождественско-сказочный симфо метал, довольно унылый в-общем. Сказать что совсем не умеют сочинять нельзя, иногда приятные моменты проглядывают,
но все это тонет в общем болоте какого-то совершенно бездумного музицирования.
Sanctus
Это настоящее сказочное музыкальное путешествие!
6666666
Верю Энтони.
dm666

Lychlake - The Tragedy Of Doctor Faustus (2021)





Format: mp3@320kbps (Lame 3.93)
[ Hidden Text ]
Lossless: FLAC (tracks)
[ Hidden Text ]

This is a "lo-fi" version of our main content. To view the full version with more information, formatting and images, please click here.
Invision Power Board © 2001-2022 Invision Power Services, Inc.