*Artist: Enthralled By Chaos
*Album: Hammerblast [ep]
*Year: 2018
*Genre: Death Metal
*Country: Switzerland
*Format: mp3@CBR320kbps
*Size: 30MB

Tracklist:
1. Call for War 03:09
2. On the Battlefield 03:21
3. Victory 03:52
4. Filthy Pleasure 02:40
******************************
Total playing time: 13:02





Technical info

Input File: 02. On the Battlefield.mp3
Channels : 2
Sample Rate : 44100
Precision : 16-bit
Duration : 00:03:21.39 = 8881387 samples = 15104.4 CDDA sectors
File Size : 8.06M
Bit Rate : 320k
Sample Encoding: MPEG audio (layer I, II or III)
Comments :
Title=On the Battlefield
Artist=Enthralled By Chaos
Album=Hammerblast
Tracknumber=02
Year=2018
Genre=Death Metal



[ Hidden Text ]