*Artist: Alien Force
*Album: We Meet Again
*Year: 2021
*Genre: Heavy Metal
*Country: Denmark
*Format: mp3@CBR320kbps
*Size: 105MB

Tracklist:
01. Set Me Free 04:49
02. Rebellions 04:10
03. I Decide for You 04:00
04. Sceptical Feeling 04:06
05. Killing Time 04:18
06. Forgive Me 04:25
07. We Meet Again 04:59
08. Precious Time 05:01
09. Temptations 04:55
10. Song for You 04:03
******************************
Total playing time: 44:46





Technical info

Input File: 02 - Rebellions.mp3
Channels : 2
Sample Rate : 44100
Precision : 16-bit
Duration : 00:04:09.00 = 10980900 samples = 18675 CDDA sectors
File Size : 10.2M
Bit Rate : 329k
Sample Encoding: MPEG audio (layer I, II or III)
Comments :
Title=Rebellions
Artist=Alien Force
Album=We Meet Again
Tracknumber=2
Year=2021-11-26
Discnumber=1



[ Hidden Text ]