Help - Search - Members - Calendar
Full Version: Servant - Blessed By The Light Of A Thousand Stars (2021)
Metal Area - Extreme Music Portal > Releases Area / Релизы > Archive
necroscum


*Artist: Servant
*Album: Blessed By The Light Of A Thousand Stars
*Year: 2021
*Genre: Black Metal
*Country: France
*Format: mp3@CBR320kbps
*Size: 101MB

Tracklist:
01. Negate the I 07:35
02. Death Meditation 06:29
03. The Ultimate Occult Worship 04:28
04. Foreshadowing Rite 02:44
05. Hymn to the Latest Days 04:28
06. Incantation of the Old Ones 03:58
07. Destruction and Recreation 03:17
08. Ecclesia Obscuri 06:12
09. Blessed by the Light of a Thousand Stars 04:08
******************************
Total playing time: 43:19


Preview 2


Technical info

Input File: 02 - Death Meditation.mp3
Channels : 2
Sample Rate : 44100
Precision : 16-bit
Duration : 00:06:29.43 = 17173951 samples = 29207.4 CDDA sectors
File Size : 15.8M
Bit Rate : 324k
Sample Encoding: MPEG audio (layer I, II or III)
Comments :
Title=Death Meditation
Artist=SERVANT
Album=Blessed by the Light of a Thousand Stars
Tracknumber=2
Year=2021
Discnumber=1/1



[ Hidden Text ]
m3t4l4r340rg
Country is Germany according their Instragram Account.
RUSP73
avather
ЦИТАТА(RUSP73 @ Nov 27 2021, 00:36:19) *

У меня такой был.
isvili
Этот сервант вовсе не плох, я бы сказал что тут 60-70% это melodic black
isvili
LOSSLESS дайте? Отличный альбом 20.gif
This is a "lo-fi" version of our main content. To view the full version with more information, formatting and images, please click here.
Invision Power Board © 2001-2022 Invision Power Services, Inc.