Help - Search - Members - Calendar
Full Version: The Consistency Paradox - I, Devourer (2021)
Metal Area - Extreme Music Portal > Releases Area / Релизы > Archive
necroscum


*Artist: The Consistency Paradox
*Album: I, Devourer
*Year: 2021
*Genre: Black Metal
*Country: United States
*Format: mp3@CBR320kbps
*Size: 72MB

Tracklist:
01. Gates of Horn & Ivory 00:56
02. Blood Curse 05:00
03. Wretched Kingdom of Despair 03:22
04. Human Ruination 04:58
05. Blasphemous Manifesto 03:19
06. Order of the Black Moon 04:15
07. Nocturnal Reveries 03:46
08. Severed Reality 02:12
09. I, Devourer 03:27
******************************
Total playing time: 31:15



Technical info

Input File: 02 - Blood Curse.mp3
Channels : 2
Sample Rate : 44100
Precision : 16-bit
Duration : 00:04:59.98 = 13229250 samples = 22498.7 CDDA sectors
File Size : 12.1M
Bit Rate : 322k
Sample Encoding: MPEG audio (layer I, II or III)
Comments :
Title=Blood Curse
Artist=The Consistency Paradox
Album=I, Devourer
Tracknumber=2
Year=2021
Discnumber=1/1



[ Hidden Text ]
Sangreal
Назвать эту поe6oтину блэком - расписаться в собственном полнейшем невежестве.
This is a "lo-fi" version of our main content. To view the full version with more information, formatting and images, please click here.
Invision Power Board © 2001-2022 Invision Power Services, Inc.