Help - Search - Members - Calendar
Full Version: Rexul - Erebus Virtuosus Alpha (2021)
Metal Area - Extreme Music Portal > Releases Area / Релизы > New Releases
Samaritianin


*Artist: Rexul
*Album: Erebus Virtuosus Alpha
*Year: 2021
*Genre: Death Metal
*Country: Germany
*Format: mp3@CBR320kbps
*Size: 114MB

Tracklist:
1. 999
2. Intergalactic Eyes
3. Reentry in Emptiness
4. The Light
5. Entlightened by the Morning Star
6. Fraternitas of an Old Noir Latreia
7. 333
8. Immaculate Vengeance
9. Curia
10. The Darkness
11. Undead Between The Column of Salomon
12. Laudatio per Mortem
13. 666
******************************
Total playing time: 49:04




Extended info
Simon M. - Guitars/Bass/Vocals. Ex member of By Brute Force & Diabolical Imperium
Benny O. - Guitars/Bass/Keys. Ex member of Diabolical Imperium


Technical info

Input File: 09 - Curia.mp3
Channels : 2
Sample Rate : 44100
Precision : 16-bit
Duration : 00:05:16.29 = 13948169 samples = 23721.4 CDDA sectors
File Size : 12.9M
Bit Rate : 326k
Sample Encoding: MPEG audio (layer I, II or III)
Comments :
Title=Curia
Artist=Rexul
Album=Erebus Virtuosus Alpha
Tracknumber=9
Year=2021



[ Hidden Text ]
oathzine
Flac

[ Hidden Text ]
valfok
Неплохой деатх
This is a "lo-fi" version of our main content. To view the full version with more information, formatting and images, please click here.
Invision Power Board © 2001-2022 Invision Power Services, Inc.