Help - Search - Members - Calendar
Full Version: Swamp Coffin - Noose Almighty (2021)
Metal Area - Extreme Music Portal > Releases Area / Релизы > New Releases
Samaritianin


*Artist: Swamp Coffin
*Album: Noose Almighty
*Year: 2021
*Genre: Sludge/Doom/Stoner Metal
*Country: United Kingdom
*Format: mp3@CBR320kbps
*Size: 90MB

Tracklist:
1. Your Problem 05:59
2. Jägerbombs Away 04:20
3. Barbarian Windsor 07:14
4. Noose Almighty 05:52
5. Knuckledrageger 08:06
6. Welcome to Rot 07:39
******************************
Total playing time: 39:10




Extended info
David Wistow Drums
Jon Rhodes Guitars, Vocals
Martyn White Bass


Technical info

Input File: 05 - Knuckledragger.mp3
Channels : 2
Sample Rate : 44100
Precision : 16-bit
Duration : 00:08:06.09 = 21436569 samples = 36456.8 CDDA sectors
File Size : 19.6M
Bit Rate : 323k
Sample Encoding: MPEG audio (layer I, II or III)
Comments :
Title=Knuckledragger
Artist=Swamp Coffin
Album=Noose Almighty
Tracknumber=5
Year=2021



[ Hidden Text ]
vosmidesijatye
Полнейший третьесорт и никакого нихилизьму (как они указывают на бэндкампе) тут ваще нет.
This is a "lo-fi" version of our main content. To view the full version with more information, formatting and images, please click here.
Invision Power Board © 2001-2022 Invision Power Services, Inc.