Help - Search - Members - Calendar
Full Version: Stangarigel - Na Severe Srdca (2022)
Metal Area - Extreme Music Portal > Releases Area / Релизы > Archive
Samaritianin


*Artist: Stangarigel
*Album: Na Severe Srdca
*Year: 2022
*Genre: Black Metal
*Country: Slovakia
*Format: mp3@CBR320kbps
*Size: 84MB

Tracklist:
1. Mytogenéza bronzovej doby 07:19
2. Zasvätenie v slnovratnej hore 05:39
3. Hviezdne ohne nad kosodrevinami 04:37
4. Uzamknutí v brale 02:09
5. Smaragdová koruna diabla 07:56
6. Poklad Tatier 09:03
******************************
Total playing time: 36:43



Extended info
Lesodiv electric & classical guitar, bass, synth
See also: Malokarpatan, Remmirath, ex-Helcaraxe, ex-Lady Reaper
Stalagnat vocals, drums


Technical info

Input File: 06 - Poklad Tatier.mp3
Channels : 2
Sample Rate : 44100
Precision : 16-bit
Duration : 00:09:03.52 = 23969100 samples = 40763.8 CDDA sectors
File Size : 21.7M
Bit Rate : 320k
Sample Encoding: MPEG audio (layer I, II or III)
Comments :
Title=Poklad Tatier
Artist=Stangarigel
Album=Na Severe Srdca
Tracknumber=6
Year=2022
Genre=Black Metal



[ Hidden Text ]
judaz
Старошкольно, атмосферно, но по большому счету интерес представляет только пара песен, где присутствуют фолковые элементы.
vosmidesijatye
Чот здесь малюсенький какой то фидбэк, в блэкволе народ кипятком писяяца от этого релиза дескать какой он такой растакой великолепный весь из себя прекраасный...
Golodomor
Приятный каноничный релиз. Просто и душевно.
Иллюстрация "Леший" Н.Брута хорошо подходит для обложки.
Blackest_black
Может у кого Flac завалялся?
igore2911
Средне, Malokarpatan получше будет
Strid
Релиз сумел оставить после себя очень хорошие впечатления! Атмосфера и общее звучание как будто что-то очень близкое уже, с уклоном в старую школу. Я вообще заметил, что балканская сцена привлекает к себе все больше внимания и вполне заслуженно на мой взгляд. Уже немало толковых команд оттуда слышал, Kult Perunov например.
This is a "lo-fi" version of our main content. To view the full version with more information, formatting and images, please click here.
Invision Power Board © 2001-2022 Invision Power Services, Inc.