Help - Search - Members - Calendar
Full Version: Spartan - Of Kings And Gods (2022)
Metal Area - Extreme Music Portal > Releases Area / Релизы > Archive
wolfskaiser


*Artist: Spartan
*Album: Of Kings And Gods
*Year: 2022
*Genre: Melodic Death Metal
*Country: Netherlands
*Format: mp3@CBR320kbps
*Size: 93MB

Tracklist:
01. The Fires Of Helios (Intro)
02. Prometheus
03. Birth Of A God (Alexander Part 1)
04. A Siren Song (Odysseus Part 2)
05. The Trial
06. Son Of Kronos (Interlude)
07. King Of The Pantheon
08. Supremacy
09. Tomb Of The Great (Alexander Part 2)
10. Kingdom Of The Dead (Odysseus Part 1)
******************************
Total playing time: 36:51



Technical info

Input File: 02. Prometheus.mp3
Channels : 2
Sample Rate : 44100
Precision : 16-bit
Duration : 00:05:11.00 = 13715100 samples = 23325 CDDA sectors
File Size : 12.7M
Bit Rate : 326k
Sample Encoding: MPEG audio (layer I, II or III)
Comments :
Title=Prometheus
Artist=Spartan
Album=Of Kings and Gods
Tracknumber=2
Year=2022-01-14
Genre=Alternative
Discnumber=1



[ Hidden Text ]
sadmannn
Недурно, нормально пацаны рубят
dm666
Lossless: FLAC (tracks)
[ Hidden Text ]
DragonDragon
Так це ж Тарас Бульба!!!
Vitald
Прокатит раз послушать.
zauber1
Рубят мощно, но тоже думаю, что на раз такое. Не за что там уху зацепиться настолько, чтобы захотелось переслушивать.
DenisKov
Третьесорт, на раз послушать пойдет, дебютник в свое время был интереснее.
This is a "lo-fi" version of our main content. To view the full version with more information, formatting and images, please click here.
Invision Power Board © 2001-2022 Invision Power Services, Inc.