Help - Search - Members - Calendar
Full Version: Eradication Of The Unworthy Infants - Change Is Good (2022)
Metal Area - Extreme Music Portal > Releases Area / Релизы > Archive
wolfskaiser


*Artist: Eradication Of The Unworthy Infants
*Album: Change Is Good
*Year: 2022
*Genre: Brutal Death Metal/Grindcore
*Country: Finland
*Format: mp3@CBR320kbps
*Size: 86MB

Tracklist:
01. In The Dust
02. Sacrilege
03. Blastocyst
04. Watching It Fall
05. Dues
06. Among The Hordes
07. Crocodile Tears
08. Inhumane
09. Nuclear Meltdown
10. Calamity
11. Dissociative
12. Eradication Of The Unworthy Infants
******************************
Total playing time: 34:05



Technical info

Input File: 02. Sacrilege.mp3
Channels : 2
Sample Rate : 44100
Precision : 16-bit
Duration : 00:02:36.98 = 6922862 samples = 11773.6 CDDA sectors
File Size : 6.44M
Bit Rate : 328k
Sample Encoding: MPEG audio (layer I, II or III)
Comments :
Title=Sacrilege
Artist=Eradication Of The Unworthy Infants
Album=Change Is Good
Tracknumber=02/12
Year=2022
Genre=Metal



[ Hidden Text ]
AHBAnep
Joonas Honkanen - Guitars, Bass (Finland)
Jad Batrouny - Vocals, Drums (USA)
https://music.yandex.ru/album/18529093
Не особо интересно.
oathzine
Flac

[ Hidden Text ]
This is a "lo-fi" version of our main content. To view the full version with more information, formatting and images, please click here.
Invision Power Board © 2001-2022 Invision Power Services, Inc.