Help - Search - Members - Calendar
Full Version: Corbian - Chapter Ii [ep] (2022)
Metal Area - Extreme Music Portal > Releases Area / Релизы > Archive
wolfskaiser


*Artist: Corbian
*Album: Chapter Ii [ep]
*Year: 2022
*Genre: Melodic Death Metal
*Country: Germany
*Format: mp3@CBR320kbps
*Size: 82MB

Tracklist:
01. Lilith
02. Veritas
03. Karma
04. Bonded
05. Lykaion
06. Nunfuckers
07. Atlas
******************************
Total playing time: 29:31




Technical info

Input File: 02. Veritas (feat. In Dying Lights).mp3
Channels : 2
Sample Rate : 44100
Precision : 16-bit
Duration : 00:05:51.27 = 15490787 samples = 26344.9 CDDA sectors
File Size : 15.3M
Bit Rate : 349k
Sample Encoding: MPEG audio (layer I, II or III)
Comments :
Title=Veritas (feat. In Dying Lights)
Artist=Corbian
Album=Chapter II (EP)
Tracknumber=02/07
Year=2022
Genre=Metal



[ Hidden Text ]
Old Vyaine
dm666
Lossless: FLAC (tracks)
[ Hidden Text ]
This is a "lo-fi" version of our main content. To view the full version with more information, formatting and images, please click here.
Invision Power Board © 2001-2022 Invision Power Services, Inc.