Help - Search - Members - Calendar
Full Version: My Lonely Sea - Nocturne (2022)
Metal Area - Extreme Music Portal > Releases Area / Релизы > Archive
necroscum


*Artist: My Lonely Sea
*Album: Nocturne
*Year: 2022
*Genre: Post-Black Metal
*Country: Russian Federation
*Format: mp3@CBR320kbps
*Size: 131MB

Tracklist:
01. Througs the Thorns 03:14
02. The Sunlight 11:06
03. To Lose Myself in You 06:08
04. We Are the Ice 13:50
05. Sand in My Hand 11:34
06. Back Together 06:58
07. Cold Breath 03:55
******************************
Total playing time: 56:45


Preview 2


Technical info

Input File: 02 - The Sunlight.mp3
Channels : 2
Sample Rate : 44100
Precision : 16-bit
Duration : 00:11:06.35 = 29385815 samples = 49975.9 CDDA sectors
File Size : 26.8M
Bit Rate : 322k
Sample Encoding: MPEG audio (layer I, II or III)
Comments :
Title=The Sunlight
Artist=My Lonely Sea
Album=Nocturne
Tracknumber=2
Year=2022
Discnumber=1/1



[ Hidden Text ]
Old Vyaine
6666666
Достойно?
Old Vyaine
QUOTE(6666666 @ 14th January 2022 - 21:27:34) *
Достойно


всяческого порицания спрашивать об этом, если сам можешь судить по превью.

Но вообще точно не на коленке сделано, мощь, размах. Зайдёт ли мелодически?.. см. превью.
Andrew
folker
ЦИТАТА(6666666 @ Jan 14 2022, 21:27:34) *
Достойно?


та таке собі.
This is a "lo-fi" version of our main content. To view the full version with more information, formatting and images, please click here.
Invision Power Board © 2001-2022 Invision Power Services, Inc.