*Artist: Tol Galen
*Album: Fortress Of The Necromancer [ep]
*Year: 2022
*Genre: Epic/Atmospheric Black Metal
*Country: Russian Federation
*Format: mp3@CBR320kbps
*Size: 51MB

Tracklist:
1. Fortress of the Necromancer 06:27
2. Forest Path 04:19
3. Fortress of the Necromancer 06:27 instrumental
4. Forest Path 04:19 instrumental
******************************
Total playing time: 21:32



Technical info

Input File: 01. Fortress of the Necromancer.mp3
Channels : 2
Sample Rate : 44100
Precision : 16-bit
Duration : 00:06:27.97 = 17109433 samples = 29097.7 CDDA sectors
File Size : 15.5M
Bit Rate : 320k
Sample Encoding: MPEG audio (layer I, II or III)
Comments :
Title=Fortress of the Necromancer
Artist=Tol Galen
Album=Fortress of the Necromancer (EP)
Tracknumber=1
Year=2022
Genre=Epic | Atmospheric Black Metal



[ Hidden Text ]