Help - Search - Members - Calendar
Full Version: Shedfromthebody - To Hold The Ripened Sun (2021)
Metal Area - Extreme Music Portal > Releases Area / Релизы > Archive
mirotvorets


*Artist: Shedfromthebody
*Album: To Hold The Ripened Sun
*Year: 2021
*Genre: Shoegaze/Post-Metal/Doom Metal/Ethereal Wave
*Country: Finland
*Format: mp3@CBR320kbps
*Size: 107MB

Tracklist:
1.It Grows Tall 03:12
2.We'll Be Lifting Our Arms to the Sky in Joy and Wonder 04:26
3.The Hollowing of Girls 03:28
4.Hours 06:17
5.In the Pines 03:50
6.Aino (Interlude) 01:21
7.Fascia 04:14
8.Irti 04:18
9.Shrines 05:40
10.Halfsorrow 04:13
11.To Hold The Ripened Sun 04:01
******************************
Total playing time: 45:00



Extended info


Technical info

Input File: 2. Shedfromthebody - We\'ll Be Lifting Our Arms To the Sky in Joy and Wonder.mp3
Channels : 2
Sample Rate : 44100
Precision : 16-bit
Duration : 00:04:26.08 = 11733908 samples = 19955.6 CDDA sectors
File Size : 11.0M
Bit Rate : 330k
Sample Encoding: MPEG audio (layer I, II or III)
Comments :
Title=We'll Be Lifting Our Arms To the Sky in Joy and Wonder
Artist=Shedfromthebody
Album=To Hold The Ripened Sun
Tracknumber=2/11
Year=2021
Discnumber=1/1



[ Hidden Text ]
Ice Gnoll
Отлично, просто замечательно. Не слышал ранее этот проект. Спасибо mirotvorets, 9.gif
6666666
Если бы ещё он запощён был вовремя.
as71
One-woman band? Ну не знаю... что-то подобное мне не попадалось ранее, есть ли смысл слушать или кустарщина какая-нибудь?
vosmidesijatye
ЦИТАТА(as71 @ Jan 27 2022, 20:57:11) *
One-woman band? Ну не знаю... что-то подобное мне не попадалось ранее,


Ну среди ван вименоф есть финская чернышная банда Anguished, от нее многие блэкеры кипятком писались в свое время. Это конечно редкость среди метала который преимущественно до сих пор мужланский все же жанр, но попробовать стоит, в конце концоф много ли ты времени потеряешь послушав один единственный тяж альбом?
This is a "lo-fi" version of our main content. To view the full version with more information, formatting and images, please click here.
Invision Power Board © 2001-2022 Invision Power Services, Inc.