Help - Search - Members - Calendar
Full Version: Deadscape - Of The Deepest Shade (2022)
Metal Area - Extreme Music Portal > Releases Area / Релизы > Archive
wolfskaiser


*Artist: Deadscape
*Album: Of The Deepest Shade
*Year: 2022
*Genre: Melodic Death Metal
*Country: Bulgaria
*Format: mp3@CBR320kbps
*Size: 119MB

Tracklist:
01. To Ashes
02. Forsaken
03. The Brightest Light
04. The Artist
05. Stillborn
06. In Desolate Silence
07. As Seasons Change
08. Witherer
09. From the Colourless Skies
10. The Shadow of the Clouds
11. Ending
12. The Ever-Pouring Rain
******************************
Total playing time: 47:43



Extended info


Technical info

Input File: 02. Forsaken.mp3
Channels : 2
Sample Rate : 44100
Precision : 16-bit
Duration : 00:04:31.77 = 11985057 samples = 20382.8 CDDA sectors
File Size : 11.0M
Bit Rate : 323k
Sample Encoding: MPEG audio (layer I, II or III)
Comments :
Title=Forsaken
Artist=Deadscape
Album=Of The Deepest Shade
Tracknumber=02/12
Year=2022
Genre=Metal



[ Hidden Text ]
sadmannn
Местами неплохо, вроде, но сыроват материал
fr47
Что будет если Arch Enemy соеденить с Insomnium. Хз
Но слушать можно
dm666
Lossless: FLAC (tracks)
[ Hidden Text ]
Andrew


This is a "lo-fi" version of our main content. To view the full version with more information, formatting and images, please click here.
Invision Power Board © 2001-2022 Invision Power Services, Inc.