Help - Search - Members - Calendar
Full Version: Wrath Of Fate - Legal Order (2022)
Metal Area - Extreme Music Portal > Releases Area / Релизы > Archive
wolfskaiser


*Artist: Wrath Of Fate
*Album: Legal Order
*Year: 2022
*Genre: Death Metal
*Country: Turkey
*Format: mp3@CBR320kbps
*Size: 93MB

Tracklist:
01. Intro
02. Is Over
03. Annihilation Tale
04. Ghoul
05. Scale of Ma'at
06. Legal Order
07. Resist All Pressure
08. Protest
09. Roots of Hate
10. This Is Not Your Life
******************************
Total playing time: 37:11



Technical info

Input File: 02. Is Over.mp3
Channels : 2
Sample Rate : 44100
Precision : 16-bit
Duration : 00:03:33.33 = 9407853 samples = 15999.8 CDDA sectors
File Size : 8.60M
Bit Rate : 323k
Sample Encoding: MPEG audio (layer I, II or III)
Comments :
Title=Is Over
Artist=Wrath Of Fate
Album=Legal Order
Tracknumber=02/10
Year=2022
Genre=Death Metal



[ Hidden Text ]
dm666
Lossless: FLAC (tracks)
[ Hidden Text ]
This is a "lo-fi" version of our main content. To view the full version with more information, formatting and images, please click here.
Invision Power Board © 2001-2022 Invision Power Services, Inc.