Help - Search - Members - Calendar
Full Version: Fecal Body Incorporated - Tales From The Spermswamp (2022)
Metal Area - Extreme Music Portal > Releases Area / Релизы > Archive
kefka


*Artist: Fecal Body Incorporated
*Album: Tales From The Spermswamp
*Year: 2022
*Genre: Goregrind
*Country: Bulgaria
*Format: mp3@CBR320kbps
*Size: 134MB

Tracklist:
01.Legend For The Spermswamp 04:02
02.Woman Like A Fetish 03:17
03.Adventures Of Don Coyote In The Valley Of Anal 04:19
04.Fairy Divine And Deadly Vaginosis 04:10
05.The Fisherman And Golden Transexual Mermaid 06:38
06.Superman And The 40 Whores 03:02
07.Filthy Passions 03:38
08.Frog Time In Pussyland 03:01
09.Uncle Dick In The Kingdom Of Tight Anals 03:22
10.Prayer For The Spermswamp 02:47
11.Rectal Kaviar Sludge 03:22
12.Female S(H)It Terror 03:02
13.Bizarre Body Modification 02:26
14.Something Rotten For Dinner 03:32
15.Maggots And Rancid Meat 02:17
16.Removal Of Rotting Fetus From The Womb 01:33
17.Cold Turkey (Ahumado Granujo Cover) 01:33
18.King Anus III (Cock And Ball Torture Cover) 00:57
19.Pathogenesis 02:00
******************************
Total playing time: 58:58



Extended info
Recorded, mixed and mastered January-August 2021 in Slaughterhouse Studio, Pleven, Bulgaria.
Tracks 11-19 recorded live at Club VLC, 26.05.2012, Sofia, Bulgaria.


Technical info

Input File: 06. Superman And The 40 Whores.mp3
Channels : 2
Sample Rate : 44100
Precision : 16-bit
Duration : 00:03:02.87 = 8064567 samples = 13715.2 CDDA sectors
File Size : 7.51M
Bit Rate : 329k
Sample Encoding: MPEG audio (layer I, II or III)
Comments :
Title=Superman And The 40 Whores
Artist=Fecal Body Incorporated
Album=Tales From The Spermswamp
Tracknumber=06
Year=2021
Genre=Goregrind



[ Hidden Text ]
oathzine
Flac

[ Hidden Text ]
rominow
This is a "lo-fi" version of our main content. To view the full version with more information, formatting and images, please click here.
Invision Power Board © 2001-2022 Invision Power Services, Inc.