Help - Search - Members - Calendar
Full Version: Dissociation - Frozen Mournings... (2022)
Metal Area - Extreme Music Portal > Releases Area / Релизы > Archive
rimfrost


*Artist: Dissociation
*Album: Frozen Mournings...
*Year: 2022
*Genre: Depressive Black Metal
*Country: France
*Format: mp3@CBR320kbps
*Size: 84MB

Tracklist:
1. Fog Pt. I 06:54
2. Fog Pt. II 05:40
3. A Brighter Place 06:32
4. In the Wake of Winter 07:38
5. A Ghost 09:41
******************************
Total playing time: 36:25



Technical info

Input File: 02 - Fog, Pt. II.mp3
Channels : 2
Sample Rate : 44100
Precision : 16-bit
Duration : 00:05:40.97 = 15036865 samples = 25572.9 CDDA sectors
File Size : 13.7M
Bit Rate : 321k
Sample Encoding: MPEG audio (layer I, II or III)
Comments :
Title=Fog, Pt. II
Artist=Dissociation
Album=Frozen Mournings...
Tracknumber=2
Year=2022
Genre=Depressive Black Metal



[ Hidden Text ]
rominow
Krosis
Можно послушать. Можно не слушать. Отторжения не вызывает, восторгов тоже.
This is a "lo-fi" version of our main content. To view the full version with more information, formatting and images, please click here.
Invision Power Board © 2001-2022 Invision Power Services, Inc.