*Artist: Vicious Circle
*Album: Demo 1993 [demo]
*Year: 1993
*Genre: Heavy/Power Metal
*Country: United States
*Format: mp3@CBR320kbps
*Size: 37MB

Tracklist:
1. Impaler 03:40
2. King Of NY 03:21
3. Traveler 03:43
4. Nightmares 04:23
5. Queen Of Hearts 03:24
******************************
Total playing time: 18:31

Extended info
Band from Buffalo, New York.


Technical info

Input File: 01-Impaler.mp3
Channels : 2
Sample Rate : 44100
Precision : 16-bit
Duration : 00:03:40.77 = 9735825 samples = 16557.5 CDDA sectors
File Size : 8.83M
Bit Rate : 320k
Sample Encoding: MPEG audio (layer I, II or III)
Comments :
Title=Impaler
Artist=Vicious Circle (US-NY)
Album=Demo (1993)
Tracknumber=01
Year=1993
Genre=Power Metal



[ Hidden Text ]