Help - Search - Members - Calendar
Full Version: Exhaustion - Cold Death Embrace [ep] (2022)
Metal Area - Extreme Music Portal > Releases Area / Релизы > Archive
Samaritianin


*Artist: Exhaustion
*Album: Cold Death Embrace [ep]
*Year: 2022
*Genre: Thrash Metal/Crossover
*Country: Italy
*Format: mp3@CBR320kbps
*Size: 50MB

Tracklist:
1. Heavy Metal Hikers 04:32
2. The Pale Horse Named Death 03:36
3. Midnight Sasquatch 03:52
4. Entrenched Skies 04:57
5. War Flags 04:34
******************************
Total playing time: 21:31




Extended info
Federico "V" Bass
See also: Nero or the Fall of Rome, Riul Doamnei
Luca L. Drums
See also: Nero or the Fall of Rome, ex-Riul Doamnei
Elia M. Guitars, Vocals
See also: Nero or the Fall of Rome, Riul Doamnei, Cast Down the Enemy


Technical info

Input File: 05 - War Flags.mp3
Channels : 2
Sample Rate : 44100
Precision : 16-bit
Duration : 00:04:34.09 = 12087413 samples = 20556.8 CDDA sectors
File Size : 11.2M
Bit Rate : 326k
Sample Encoding: MPEG audio (layer I, II or III)
Comments :
Title=War Flags
Artist=Exhaustion
Album=Cold Death Embrace
Tracknumber=5/1



[ Hidden Text ]
Vitald
Норм. Хотя по тегам - это другое. 1488.gif
Storky
ЦИТАТА(Vitald @ Jan 16 2022, 20:00:32) *
Норм. Хотя по тегам - это другое. 1488.gif

Трэш/Блэк н Ролл )
Бодрый альбом, один из лучших с последних двух страниц релизов, но оставлять цi не еще думаю
This is a "lo-fi" version of our main content. To view the full version with more information, formatting and images, please click here.
Invision Power Board © 2001-2022 Invision Power Services, Inc.