Help - Search - Members - Calendar
Full Version: Horndal - Be Evil [ep] (2022)
Metal Area - Extreme Music Portal > Releases Area / Релизы > Archive
Necrokilldozer


*Artist: Horndal
*Album: Be Evil [ep]
*Year: 2022
*Genre: Sludge/Hardcore
*Country: Sweden
*Format: mp3@CBR320kbps
*Size: 19MB

Tracklist:
1. Be Evil 04:18
2. The Deceiver 03:43
******************************
Total playing time: 8:01



Extended info
Line - up:

Erik Welén - Bass
Pontus Levahn - Drums (Tiger Lou, Torpedo)
Fredrik Boëthius Fjȁrem - Guitars (C.B Murdoc, ex-Mörk Gryning)
Henrik Levahn - Vocals, Guitars


Technical info

Input File: 02-horndal-the_deceiver-f9c7eca2.mp3
Channels : 2
Sample Rate : 44100
Precision : 16-bit
Duration : 00:03:42.50 = 9812250 samples = 16687.5 CDDA sectors
File Size : 8.90M
Bit Rate : 320k
Sample Encoding: MPEG audio (layer I, II or III)
Comments :
Title=The Deceiver
Artist=Horndal
Album=Be Evil (EP)
Tracknumber=2
Year=2022
Genre=Sludge Metal | Hardcore



[ Hidden Text ]
Vitald
Годняк.
This is a "lo-fi" version of our main content. To view the full version with more information, formatting and images, please click here.
Invision Power Board © 2001-2022 Invision Power Services, Inc.