Help - Search - Members - Calendar
Full Version: The Defaced - Charlatans (2022)
Metal Area - Extreme Music Portal > Releases Area / Релизы > New Releases > Low Bitrate
necroscum


*Artist: The Defaced
*Album: Charlatans
*Year: 2022
*Genre: Groove/Thrash Metal
*Country: Sweden
*Format: mp3@CBR320kbps
*Size: 100MB

Tracklist:
1. Monochromatic Void
2. Bleeding Ore
3. Charlatan
4. Celestial Display
5. Gilded Hands
6. Son of the Sun
7. Wreck
8. Enter the Stage
9. Fangs
10. No More Diamonds
******************************
Total playing time: 43:28


Preview 2


Technical info

Input File: 04 - Celestial Display.mp3
Channels : 2
Sample Rate : 44100
Precision : 16-bit
Duration : 00:04:32.00 = 11995200 samples = 20400 CDDA sectors
File Size : 11.0M
Bit Rate : 324k
Sample Encoding: MPEG audio (layer I, II or III)
Comments :
Title=Celestial Display
Artist=The Defaced
Album=Charlatans
Tracknumber=4
Year=2022-03-04
Genre=Metal
Discnumber=1



[ Hidden Text ]
sadmannn
Хороший альбом!
smes
обновить
Ingvar
101 mb/320 kbps
[ Hidden Text ]
This is a "lo-fi" version of our main content. To view the full version with more information, formatting and images, please click here.
Invision Power Board © 2001-2023 Invision Power Services, Inc.