*Artist: Contingence
*Album: Dominion
*Year: 1995
*Genre: Industrial Metal
*Country: United States
*Format: mp3@CBR320kbps
*Size: 128MB

Tracklist:
01. Synopsis II.C5.IX-V 05:25
02. Fusion 05:12
03. The Schismastisist 04:49
04. Bioconfigurations 04:03
05. Fellacious Doctrine 07:14
06. Mordant Atrophy 05:20
07. Nocturnal Sedation 04:35
08. Compulsion To Kill 04:28
09. Illusion Of The Beast 05:28
10. Incarceration Unavowed 06:23
******************************
Total playing time: 52:57

Extended info
FLAC-Rip + Scans
Deprogrammed Productions – DPRG-0001


Technical info

Input File: 01 - Synopsis II.C5.IX-V.mp3
Channels : 2
Sample Rate : 44100
Precision : 16-bit
Duration : 00:05:25.61 = 14359313 samples = 24420.6 CDDA sectors
File Size : 13.0M
Bit Rate : 320k
Sample Encoding: MPEG audio (layer I, II or III)



[ Hidden Text ]