Help - Search - Members - Calendar
Full Version: Sarcastic Existence - Arts Of Execution (1995)
Metal Area - Extreme Music Portal > Releases Area / Релизы > New Releases > Low Bitrate
Proteus_666


*Artist: Sarcastic Existence
*Album: Arts Of Execution
*Year: 1995
*Genre: Death/Thrash Metal
*Country: Germany
*Format: mp3@CBR192kbps
*Size: 61MB

Tracklist:
1. Arts Of Execution 03:50
2. Kill Your Neighbour 06:56
3. Fear Of Indication 04:52
4. Suicid Mentality 04:28
5. Denial Of Christianity 04:37
6. Cosmic Drama 06:30
7. Sacrificed 03:28
8. Strangulation 05:10
9. Infected State 04:31
******************************
Total playing time: 44:22

Extended info
Produced by Sarcastic Existence in 1994.
Mixed & recorded at A & A Musik Studio, Potsdam.


Technical info

Input File: 01-Arts of Execution.mp3
Channels : 2
Sample Rate : 44100
Precision : 16-bit
Duration : 00:03:49.26 = 10110454 samples = 17194.6 CDDA sectors
File Size : 5.50M
Bit Rate : 192k
Sample Encoding: MPEG audio (layer I, II or III)
Comments :
Title=Arts of Execution
Artist=Sarcastic Existence (Ger)
Album=Arts of Execution
Tracknumber=01
Year=1995
Genre=Death Metal



[ Hidden Text ]
anatolibugar
Thanx a lot for this relese !!!!!
This is a "lo-fi" version of our main content. To view the full version with more information, formatting and images, please click here.
Invision Power Board © 2001-2023 Invision Power Services, Inc.