Help - Search - Members - Calendar
Full Version: Häxenzijrkell - Urgrund (2022)
Metal Area - Extreme Music Portal > Releases Area / Релизы > Archive
Necrokilldozer


*Artist: Häxenzijrkell
*Album: Urgrund
*Year: 2022
*Genre: Atmospheric Black Metal
*Country: Germany
*Format: mp3@CBR320kbps
*Size: 84MB

Tracklist:
1. Part 1: Die Entschleierung 18:20
2. Part 2: Von Zeit und Form 08:12
3. Part 3: Der Pfad der Finsternis 08:42
******************************
Total playing time: 35:14


metal-archives

Extended info
Line - up:

P. - Drums (Iapetos)
MK - Vocals, Guitars, Synths (Iapetos, Lichtzehrer, Rraaumm)


Technical info

Input File: 03. Part 3 Der Pfad der Finsternis.mp3
Channels : 2
Sample Rate : 44100
Precision : 16-bit
Duration : 00:08:42.09 = 23024125 samples = 39156.7 CDDA sectors
File Size : 20.9M
Bit Rate : 320k
Sample Encoding: MPEG audio (layer I, II or III)
Comments :
Title=Part 3: Der Pfad der Finsternis
Artist=Haxenzijrkell
Album=Urgrund
Tracknumber=3
Year=2022
Genre=138



[ Hidden Text ]
silentstorm
атмосфера сырости, болота, пещеры.. чуть хоррора. да ниче вроде
Unmerciful
Reupload please? Links are dead.
Chasm
[ Hidden Text ]
Chasm
Ритуал ведьмовского транса, сочный подсознательный прогруз, напоминающий чем то - то о Urfaust, то о нетленной классике как гитарным звоном и рифами, так и зацикленными структурами.
Их первый полноформатник 20-го года вызывал схожие ощущения,( правда быстро надоел, как то второго дна я в том колодце не обнаружил, но это доё..ки скорее и стоит освежить) и немцы продолжают в выбранном ключе.
This is a "lo-fi" version of our main content. To view the full version with more information, formatting and images, please click here.
Invision Power Board © 2001-2023 Invision Power Services, Inc.