Help - Search - Members - Calendar
Full Version: Voorhees - Chapter III (2022)
Metal Area - Extreme Music Portal > Releases Area / Релизы > New Releases
Samaritianin


*Artist: Voorhees
*Album: Chapter III
*Year: 2022
*Genre: Old School Death Metal
*Country: France
*Format: mp3@CBR320kbps
*Size: 100MB

Tracklist:
1. Voorhees III 05:33
2. Here Comes the Bride 04:59
3. I'm the Man Who Became God (Voorheescious Scourge Version) 06:33
4. Freshly Deceased 04:47
5. Summoning the Demon's Delight 04:24
6. Don't Scream (2022 version) 04:12
7. A Tale from the Dark Side (Mercylhees Version) 04:32
8. They Move.They Breathe.They Suck 04:48
9. Z Killer (Voorhass Version) 03:19
******************************
Total playing time: 43:07




Extended info
Will Drums
See also: Nosphares, ex-Visceral Hate, ex-Nihilism, ex-Funeral Holocaust, ex-Disquiet
Fred Bass (2017-present)
See also: Dehumanize, ex-Lake of Oblivion, Screaming Worms
Chris Vocals, Guitars (2017-present)
See also: ex-Cantar, ex-Corpses, ex-Deterrent, ex-Insane, Metal Militia, ex-Dehumanize
Sébastien Valbrecq Guitars (lead) (2018-present)
See also: ex-Dungortheb


Technical info

Input File: VOORHEES - CHAPTER III - 07 A Tale from the Dark Side (Mercylhees Version).mp3
Channels : 2
Sample Rate : 44100
Precision : 16-bit
Duration : 00:04:32.68 = 12025232 samples = 20451.1 CDDA sectors
File Size : 11.0M
Bit Rate : 324k
Sample Encoding: MPEG audio (layer I, II or III)
Comments :
Title=A Tale from the Dark Side (Mercylhees Version)
Artist=VOORHEES
Album=CHAPTER III
Tracknumber=7
Year=2022



[ Hidden Text ]
AHBAnep
[ Hidden Text ]
Andrew
Скорее Death/Thrash Metal.
This is a "lo-fi" version of our main content. To view the full version with more information, formatting and images, please click here.
Invision Power Board © 2001-2022 Invision Power Services, Inc.