Help - Search - Members - Calendar
Full Version: Exterminas - Attain Salvation (2022)
Metal Area - Extreme Music Portal > Releases Area / Релизы > New Releases
rimfrost


*Artist: Exterminas
*Album: Attain Salvation
*Year: 2022
*Genre: Black Metal
*Country: Italy
*Format: mp3@CBR320kbps
*Size: 81MB

Tracklist:
1. Shava Samskara 04:52
2. Aghori 04:53
3. Attain Salvation 05:04
4. Essence of Dominion 05:26
5. Otherworld 04:30
6. Down to Cenotes 04:49
7. Sati 04:40
8. Towers of Silence 05:19
******************************
Total playing time: 39:33

Technical info

Input File: 03 - Attain Salvation.mp3
Channels : 2
Sample Rate : 44100
Precision : 16-bit
Duration : 00:05:04.00 = 13406400 samples = 22800 CDDA sectors
File Size : 12.4M
Bit Rate : 326k
Sample Encoding: MPEG audio (layer I, II or III)
Comments :
Title=Attain Salvation
Artist=Exterminas
Album=Attain Salvation
Tracknumber=3
Year=2022-05-04
Genre=Metal
Discnumber=1



[ Hidden Text ]
rimfrost
This is a "lo-fi" version of our main content. To view the full version with more information, formatting and images, please click here.
Invision Power Board © 2001-2022 Invision Power Services, Inc.