Help - Search - Members - Calendar
Full Version: Gonemage - Master Of Disgust​.​.​. (2022)
Metal Area - Extreme Music Portal > Releases Area / Релизы > Archive
Necrokilldozer


*Artist: Gonemage
*Album: Master Of Disgust​.​.​.
*Year: 2022
*Genre: Experimental/Post-Black Metal/Chiptune
*Country: United States
*Format: mp3@CBR320kbps
*Size: 46MB

Tracklist:
1. Master of Disgust​.​.​. 04:20
2. Mega Toss Into Crypts 04:08
3. WarWare: Possessed Console 06:00
4. Demon Head and the Reign of Stench 03:33
5. Foul Portal to Delirium 01:19
******************************
Total playing time: 19:20



Technical info

Input File: 03. WarioWare Possessed Console.mp3
Channels : 2
Sample Rate : 44100
Precision : 16-bit
Duration : 00:06:01.06 = 15922790 samples = 27079.6 CDDA sectors
File Size : 14.4M
Bit Rate : 320k
Sample Encoding: MPEG audio (layer I, II or III)
Comments :
Title=WarioWare: Possessed Console
Artist=Gonemage
Album=Master of Disgust...
Tracknumber=3
Year=2022
Genre=Experimental | Post-Black Metal | Chiptune



[ Hidden Text ]
PepeMetal
Последователи Xexyz?
This is a "lo-fi" version of our main content. To view the full version with more information, formatting and images, please click here.
Invision Power Board © 2001-2022 Invision Power Services, Inc.