Help - Search - Members - Calendar
Full Version: Geste Futile - Damnatio Memoriae (2022)
Metal Area - Extreme Music Portal > Releases Area / Релизы > New Releases
Samaritianin


*Artist: Geste Futile
*Album: Damnatio Memoriae
*Year: 2022
*Genre: Black Metal
*Country: France
*Format: mp3@CBR320kbps
*Size: 116MB

Tracklist:
1. Shards 02:52
2. Hatred 07:39
3. Abyss 09:18
4. Purgatory 05:24
5. Escape 10:44
6. Void 14:24
******************************
Total playing time: 50:21



Extended info
Kraampus Unknown


Technical info

Input File: Geste Futile - Damnatio Memoriae - 05 Escape.mp3
Channels : 2
Sample Rate : 44100
Precision : 16-bit
Duration : 00:10:44.24 = 28411028 samples = 48318.1 CDDA sectors
File Size : 25.9M
Bit Rate : 322k
Sample Encoding: MPEG audio (layer I, II or III)
Comments :
Title=Escape
Artist=Geste Futile
Album=Damnatio Memoriae
Tracknumber=5
Year=2022



[ Hidden Text ]
rimfrost
This is a "lo-fi" version of our main content. To view the full version with more information, formatting and images, please click here.
Invision Power Board © 2001-2022 Invision Power Services, Inc.