Help - Search - Members - Calendar
Full Version: Collidor - Collidor (2022)
Metal Area - Extreme Music Portal > Releases Area / Релизы > New Releases
kefka


*Artist: Collidor
*Album: Collidor
*Year: 2022
*Genre: Heavy Metal
*Country: Germany
*Format: mp3@CBR320kbps
*Size: 83MB

Tracklist:
1.Nephophobia 04:34
2.Hero of Destruction 02:35
3.Cryostorm 03:08
4.Doctor Death 03:01
5.False Gods 03:16
6.She 03:02
7.Last Stand 04:27
8.Decapitated Queen 04:36
9.Black Gold 02:44
10.Break Out 05:00
******************************
Total playing time: 36:23



Technical info

Input File: 02 - Hero Of Destruction.mp3
Channels : 2
Sample Rate : 44100
Precision : 16-bit
Duration : 00:02:35.07 = 6838763 samples = 11630.5 CDDA sectors
File Size : 6.30M
Bit Rate : 325k
Sample Encoding: MPEG audio (layer I, II or III)
Comments :
Title=Hero Of Destruction
Artist=Collidor
Album=Collidor
Tracknumber=02
Year=2022
Genre=Heavy Metal



[ Hidden Text ]
Amadeus
после Колидора ждем группу Тубарет, Ихний и Друшлаг
Daecadance
, а в нем rezetka
MetalgeR
[b]Amadeus[Дуршлаг наверное
RUSP73
ЦИТАТА(MetalgeR @ May 14 2022, 18:37:00) *
[b]Amadeus[Дуршлаг наверное

А Тубарет и Ихний не напряг? 1488.gif
JPV
Калинизация и Япон Мафонский ))
batyr
каклета, сместитель и брутерброд
This is a "lo-fi" version of our main content. To view the full version with more information, formatting and images, please click here.
Invision Power Board © 2001-2022 Invision Power Services, Inc.