Help - Search - Members - Calendar
Full Version: In Twilight's Embrace - Lifeblood (2022)
Metal Area - Extreme Music Portal > Releases Area / Релизы > New Releases
kefka


*Artist: In Twilight's Embrace
*Album: Lifeblood
*Year: 2022
*Genre: Melodic Black/Death Metal
*Country: Poland
*Format: mp3@CBR320kbps
*Size: 109MB

Tracklist:
1.The Death Drive 08:58
2.Smoke and Mirrors 05:56
3.Lifeblood 05:56
4.Iskry 05:21
5.So Bleeds the Night 07:26
6.Sedation to Sedition 05:28
7.Te Deum 08:36
******************************
Total playing time: 47:41



Technical info

Input File: 03. Lifeblood.mp3
Channels : 2
Sample Rate : 44100
Precision : 16-bit
Duration : 00:05:55.94 = 15696998 samples = 26695.6 CDDA sectors
File Size : 14.2M
Bit Rate : 320k
Sample Encoding: MPEG audio (layer I, II or III)
Comments :
Title=Lifeblood
Artist=In Twilight's Embrace
Album=Lifeblood
Tracknumber=03
Year=2022
Genre=Melodic Black/Death Metal



[ Hidden Text ]
Olrak
Очень неплохо! h27001.gif
WOLAND
Вот это подарок на выхлопные, 20.gif я панимайюу...
Все альбомы классные у них. metaler.gif
vosmidesijatye
ЦИТАТА(WOLAND @ May 14 2022, 22:53:18) *
выхлопные,


15.gif
WOLAND
Все по режиму спортивной недели. Теперь два дня спиртболла - проспиртовать мышцы-квадрицепсы. alkash.gif
snorr
А что со звуком ?? Или только у меня какая то всратая каша звучит?
WOLAND
Только у тебя.
SatanMy_Master
Отличный был бы блек, но звук уж через чур глухой. Лично мне неприятно было слушать альбом из за этого. Тут они окончательно в блек ушли. Так что лучшим альбомом для меня остаётся пожалуй в дискографии The Grim Muse 2015 года. Вот его и советую послушать, а другие альбомы - на любителя скорее, имхо.
DenisKov
Коммент выше по делу. Звук глухой и портит и без того средний альбом. В целом по группе - 2015 годный, дальше губительный уход в блек.
This is a "lo-fi" version of our main content. To view the full version with more information, formatting and images, please click here.
Invision Power Board © 2001-2022 Invision Power Services, Inc.