Help - Search - Members - Calendar
Full Version: Serapis - Vita Et Mors (2022)
Metal Area - Extreme Music Portal > Releases Area / Релизы > New Releases
kefka


*Artist: Serapis
*Album: Vita Et Mors
*Year: 2022
*Genre: Death Metal
*Country: Austria
*Format: mp3@CBR320kbps
*Size: 69MB

Tracklist:
1.Athanasy 03:53
2.The Isles of Infinity 07:55
3.Morbus Animi 04:09
4.Act of Gods 03:50
5.Avatar of Chaos 04:22
6.The Dark Abyss 06:08
******************************
Total playing time: 30:17



Technical info

Input File: 04 - Act of Gods (feat. Vedrana Šurina).mp3
Channels : 2
Sample Rate : 44100
Precision : 16-bit
Duration : 00:03:50.70 = 10174002 samples = 17302.7 CDDA sectors
File Size : 9.51M
Bit Rate : 330k
Sample Encoding: MPEG audio (layer I, II or III)
Comments :
Title=Act of Gods (feat. Vedrana Šurina)
Artist=Serapis feat. Vedrana Šurina
Album= Vita et Mors
Tracknumber=04
Year=2022
Genre=Progressive Death Metal



[ Hidden Text ]
dm666
Lossless: FLAC (tracks)
[ Hidden Text ]
mirotvorets
ЦИТАТА(kefka @ May 14 2022, 08:45:27) *
*Genre: Death Metal


Это интересная EP-шка. Стиль Progressive Death Metal - было бы правильнее указать. То что Австрия - насторожило и оказалось, что действительно - Graf "Ghyuliach" Gyula - выходец из Сербии. Дюже здесь национального южного колорита добавлено, уж никак не на Австрию ориентированного. Бодрый разнообразный материал, затехниченный и с атмосферой хоровода.
WOLAND
Ни о чем.
This is a "lo-fi" version of our main content. To view the full version with more information, formatting and images, please click here.
Invision Power Board © 2001-2022 Invision Power Services, Inc.