Help - Search - Members - Calendar
Full Version: Heldenasche - Der Abgesang (2022)
Metal Area - Extreme Music Portal > Releases Area / Релизы > New Releases
Velmi


*Artist: Heldenasche
*Album: Der Abgesang
*Year: 2022
*Genre: Black Metal
*Country: Germany
*Format: mp3@CBR320kbps
*Size: 115MB

Tracklist:
1. Der Abgesang 10:01
2. Unter der Asche 07:26
3. Die Fahne weht noch immer 05:28
4. Empor aus der Asche 08:32
5. Under the Black Sun 07:04
6. Permafrost (Absurd cover) 04:21
7. Revolution 03:38
8. Armageddon 03:36
******************************
Total playing time: 50:06

Extended info
Hammerbund - HBCD2022
7-8 tracks - demo "Spirit" on CD.


Technical info

Input File: 04. Empor Aus Der Asche.mp3
Channels : 2
Sample Rate : 44100
Precision : 16-bit
Duration : 00:08:32.35 = 22594415 samples = 38425.9 CDDA sectors
File Size : 20.5M
Bit Rate : 320k
Sample Encoding: MPEG audio (layer I, II or III)
Comments :
Title=Empor Aus Der Asche
Artist=Heldenasche
Album=Der Abgesang
Tracknumber=04/08
Year=2022
Genre=Black Metal



[ Hidden Text ]
rimfrost
Mach1naePerson4
Another faceless copycat. Damn, how I miss the times when germany had fantastic Black Metal bands like Lunar Aurora, Nagelfar, and others.
Narasimha
ЦИТАТА(Mach1naePerson4 @ May 14 2022, 09:21:06) *
Another faceless copycat. Damn, how I miss the times when germany had fantastic Black Metal bands like Lunar Aurora, Nagelfar, and others.


Checkout the Band called Friisk
Kvlt
QUOTE(Mach1naePerson4 @ May 14 2022, 09:21:06) *
Another faceless copycat. Damn, how I miss the times when germany had fantastic Black Metal bands like Lunar Aurora, Nagelfar, and others.


How ridiculous to compare a nazi band like this here (don't start complaining, Hammerbund is a well known nazi label) with bands like you named. What comes next, comparing Mystic Circle with Nordreich? 15.gif
Mach1naePerson4
QUOTE(Kvlt @ May 14 2022, 19:29:43) *
How ridiculous to compare a nazi band like this here (don't start complaining, Hammerbund is a well known nazi label) with bands like you named. What comes next, comparing Mystic Circle with Nordreich? 15.gif


Yeah, it's actually quite ridiculous that a scene that had greats like aforementioned bands gets flooded by third-class black metal bands who're probably just existing for the sake of promoting their clownish ideology.
Vitald
10-ти минутная открывашка - топчик, вторая её половина, если обрезать - так точно. 1488.gif Жаль, что отошли от саунда, который был на демо. Там вроде и простая двухходовочка, но звучала жёстко, убедительно и без излишних слюнек. Здесь же мы имеем этакий размазанный недо-нсбм с атмосферной гЕтаркой на передке с говно-жизнеутверждающим тремоло. 1488.gif Если абстрагироваться от этой лажи, то вполне нормально заходит, включая затасканный перепев телеги Абсурда.
This is a "lo-fi" version of our main content. To view the full version with more information, formatting and images, please click here.
Invision Power Board © 2001-2022 Invision Power Services, Inc.