Help - Search - Members - Calendar
Full Version: Purveyor - Ruminations (2022)
Metal Area - Extreme Music Portal > Releases Area / Релизы > New Releases
kefka


*Artist: Purveyor
*Album: Ruminations
*Year: 2022
*Genre: Death Metal
*Country: United States
*Format: mp3@CBR320kbps
*Size: 69MB

Tracklist:
01.Bowser 02:13
02.It's Got a Death Curse 04:15
03.Black Holes 05:10
04.Leviathan 04:33
05.I Am You 04:11
06.Mimic 04:02
07.The Summoning 06:52
******************************
Total playing time: 31:16



Technical info

Input File: 04 - Leviathan.mp3
Channels : 2
Sample Rate : 44100
Precision : 16-bit
Duration : 00:04:33.96 = 12081812 samples = 20547.3 CDDA sectors
File Size : 11.2M
Bit Rate : 326k
Sample Encoding: MPEG audio (layer I, II or III)
Comments :
Title=Leviathan
Artist=Purveyor
Album=Ruminations
Tracknumber=04
Year=2022
Genre=Death Metal



[ Hidden Text ]
AHBAnep
[ Hidden Text ]
Andrew
This is a "lo-fi" version of our main content. To view the full version with more information, formatting and images, please click here.
Invision Power Board © 2001-2022 Invision Power Services, Inc.