Help - Search - Members - Calendar
Full Version: Atonement - Where The Light Is Devouring By Darkness (2022)
Metal Area - Extreme Music Portal > Releases Area / Релизы > Archive
kefka


*Artist: Atonement
*Album: Where The Light Is Devouring By Darkness
*Year: 2022
*Genre: Death/Black Metal
*Country: Poland
*Format: mp3@CBR320kbps
*Size: 73MB

Tracklist:
1.The Beginning of Ritual 01:29
2.Mirdautas Vras 04:21
3.Mor Gash 04:37
4.Ushur Daihir 03:17
5.Bells of Doom 04:51
6.The Choir Of The Undead 04:32
7.Chalice Of Misterious Whispers 04:16
8.Don't Follow The Lights 03:01
9.The End Of Hope 01:16
******************************
Total playing time: 31:40



Technical info

Input File: 04 - Ushur Daihir.mp3
Channels : 2
Sample Rate : 44100
Precision : 16-bit
Duration : 00:03:17.47 = 8708559 samples = 14810.5 CDDA sectors
File Size : 8.35M
Bit Rate : 338k
Sample Encoding: MPEG audio (layer I, II or III)
Comments :
Title=Ushur Daihir
Artist=Atonement
Album=Where the Light Is Devouring by Darkness
Tracknumber=04
Year=2022
Genre=Black/Death Metal



[ Hidden Text ]
dm666
Lossless: FLAC (tracks)
[ Hidden Text ]
This is a "lo-fi" version of our main content. To view the full version with more information, formatting and images, please click here.
Invision Power Board © 2001-2022 Invision Power Services, Inc.